Warning! Use a VPN When Downloading Torrents!
Your IP Address is . Location
Your Internet Provider can see when you download torrents! Hide your IP Address with a VPN
The PirateBay requires Trust.Zone VPN to hide your torrenting. It's FREE!
HIDE ME NOW

Details for this torrent 

Garda Down Under S01E01 (2 September 2015) [IRL] PDTV
Type:
Video > TV shows
Files:
1
Size:
245.01 MiB (256910804 Bytes)
Spoken language(s):
English
Tag(s):
Policing Australia
Uploaded:
2015-09-12 07:09:34 GMT
By:
toots2boots Trusted
Seeders:
0
Leechers:
0
Comments
0  

Info Hash:
3E08A58D537A0526F2F0FE1E98411A870D59DD2E




(Problems with magnets links are fixed by upgrading your torrent client!)
Garda Down Under is the story of life on the beat for Irish officers working in Western Australia, the largest police district in the world. So large, in fact, that the island of Ireland would fit in there 30 times over.
This vast expanse needs policing and with a rapidly growing population thanks to a mining boom, the WA government looked overseas, aggressively recruiting experienced officers from other jurisdictions. The GardaĆ­, regarded as highly trained by the Australian police force, were among their prime targets.
Since 2005, 30 GardaĆ­ have decided to pack up and head for sunnier climes, leaving recession-hit Ireland behind for a new life as cops in booming WA.
For the first time ever, the WA Police Department have opened their doors to our cameras. With unique and unhindered access, we get an exclusive look at how crime fighters operate down under.

General
Complete name                            : M:PostsGarda Down Under S01E01 (2 September 2015) [IRL] PDTVGarda Down Under S01E01 (2 September 2015) [IRL] PDTV.mp4
Format                                   : MPEG-4
Format profile                           : Base Media / Version 2
Codec ID                                 : mp42
File size                                : 245 MiB
Duration                                 : 24mn 45s
Overall bit rate mode                    : Variable
Overall bit rate                         : 1 384 Kbps
Encoded date                             : UTC 2036-02-06 06:28:16
Tagged date                              : UTC 2036-02-06 06:28:16
Writing application                      : HandBrake 0.10.2 2015060900

Video
ID                                       : 1
Format                                   : AVC
Format/Info                              : Advanced Video Codec
Format profile                           : [email protected]
Format settings, CABAC                   : Yes
Format settings, ReFrames                : 4 frames
Codec ID                                 : avc1
Codec ID/Info                            : Advanced Video Coding
Duration                                 : 24mn 45s
Bit rate                                 : 1 200 Kbps
Width                                    : 720 pixels
Height                                   : 404 pixels
Display aspect ratio                     : 16:9
Frame rate mode                          : Constant
Frame rate                               : 25.000 fps
Color space                              : YUV
Chroma subsampling                       : 4:2:0
Bit depth                                : 8 bits
Scan type                                : Progressive
Bits/(Pixel*Frame)                       : 0.165
Stream size                              : 210 MiB (86%)
Writing library                          : x264 core 142 r2479 dd79a61
Encoding settings                        : cabac=1 / ref=1 / deblock=1:0:0 / analyse=0x1:0x111 / me=hex / subme=2 / psy=1 / psy_rd=1.00:0.00 / mixed_ref=0 / me_range=16 / chroma_me=1 / trellis=0 / 8x8dct=0 / cqm=0 / deadzone=21,11 / fast_pskip=1 / chroma_qp_offset=0 / threads=6 / lookahead_threads=2 / sliced_threads=0 / nr=0 / decimate=1 / interlaced=0 / bluray_compat=0 / constrained_intra=0 / bframes=3 / b_pyramid=2 / b_adapt=1 / b_bias=0 / direct=1 / weightb=1 / open_gop=0 / weightp=1 / keyint=250 / keyint_min=25 / scenecut=40 / intra_refresh=0 / rc_lookahead=10 / rc=abr / mbtree=1 / bitrate=1200 / ratetol=1.0 / qcomp=0.60 / qpmin=0 / qpmax=69 / qpstep=4 / vbv_maxrate=20000 / vbv_bufsize=25000 / nal_hrd=none / filler=0 / ip_ratio=1.40 / aq=1:1.00
Encoded date                             : UTC 2036-02-06 06:28:16
Tagged date                              : UTC 2036-02-06 06:28:16
Color primaries                          : BT.709-5, BT.1361, IEC 61966-2-4, SMPTE RP177
Transfer characteristics                 : BT.709-5, BT.1361
Matrix coefficients                      : BT.709-5, BT.1361, IEC 61966-2-4 709, SMPTE RP177

Audio
ID                                       : 2
Format                                   : AAC
Format/Info                              : Advanced Audio Codec
Format profile                           : LC
Codec ID                                 : 40
Duration                                 : 24mn 45s
Bit rate mode                            : Variable
Bit rate                                 : 192 Kbps
Channel(s)                               : 2 channels
Channel positions                        : Front: L R
Sampling rate                            : 48.0 KHz
Compression mode                         : Lossy
Stream size                              : 34.1 MiB (14%)
Title                                    : Stereo
Language                                 : English
Encoded date                             : UTC 2036-02-06 06:28:16
Tagged date                              : UTC 2036-02-06 06:28:16