Warning! Use a VPN When Downloading Torrents!
Your IP Address is . Location
Your Internet Provider can see when you download torrents! Hide your IP Address with a VPN
The PirateBay requires Trust.Zone VPN to hide your torrenting. It's FREE!
HIDE ME NOW

Details for this torrent 

The Ascent Of Woman S01E02 Separation HDTV x264-C4TV
Type:
Video > TV shows
Files:
1
Size:
293.45 MiB (307703441 Bytes)
Spoken language(s):
English
Tag(s):
Feminism Anthropology
Uploaded:
2015-09-12 13:16:34 GMT
By:
toots2boots Trusted
Seeders:
0
Leechers:
1
Comments
0  

Info Hash:
BA59AFF1E28DC2933078E45128C2CC37E112E098




(Problems with magnets links are fixed by upgrading your torrent client!)
Travelling to Vietnam, China and Japan, Dr Amanda Foreman explores the role of women in Asia under the philosophy religions of Confucianism and Buddhism. Covering a period from the 1st century AD to the present day, she'll look at how Asian ideals of feminine virtue and the division of space between the female world of the home and male world of business and politics became a hallmark of Chinese identity. Part of yin and yang, they have cast a long shadow across women's lives, not just in China, but across Asia.
On the one hand, empowered by faiths such as Buddhism and Shinto, many women confronted the limits placed on their sex. They include Vietnam's Trung Sisters, who mounted the first armed rebellion against China, Empress Wu, the only woman to have ruled China in her own right, and the female writers of 12th century Japan such as Murasaki Shikibu, who created Japan's great literacy masterpieces, including the world's first novel - The Tale of Genji.
On the other hand, these limitations created ideals of beauty that advocated immobility and artifice, and were a world away from low-status work and labour. If they could lead to dynastic power and in some cases considerable sexual freedom, they also culminated in one of the most troubling and least understood beauty rituals in women's history: Chinese foot-binding, whose painful legacy would last right up to the 20th century.

General
Complete name                            : M:PostsThe Ascent Of Woman S01E02 Separation HDTV x264-C4TVthe.ascent.of.woman.s01e02.separation.hdtv.x264-c4tv.mp4
Format                                   : MPEG-4
Format profile                           : Base Media
Codec ID                                 : isom
File size                                : 293 MiB
Duration                                 : 59mn 18s
Overall bit rate mode                    : Variable
Overall bit rate                         : 692 Kbps

Video
ID                                       : 1
Format                                   : AVC
Format/Info                              : Advanced Video Codec
Format profile                           : [email protected]
Format settings, CABAC                   : Yes
Format settings, ReFrames                : 5 frames
Codec ID                                 : avc1
Codec ID/Info                            : Advanced Video Coding
Duration                                 : 59mn 18s
Bit rate                                 : 564 Kbps
Maximum bit rate                         : 6 511 Kbps
Width                                    : 720 pixels
Height                                   : 404 pixels
Display aspect ratio                     : 16:9
Frame rate mode                          : Constant
Frame rate                               : 25.000 fps
Color space                              : YUV
Chroma subsampling                       : 4:2:0
Bit depth                                : 8 bits
Scan type                                : Progressive
Bits/(Pixel*Frame)                       : 0.078
Stream size                              : 239 MiB (81%)
Title                                    : Video
Writing library                          : x264 core 148 r2597 e86f3a1
Encoding settings                        : cabac=1 / ref=5 / deblock=1:0:0 / analyse=0x3:0x113 / me=umh / subme=8 / psy=1 / psy_rd=1.00:0.00 / mixed_ref=1 / me_range=16 / chroma_me=1 / trellis=1 / 8x8dct=1 / cqm=0 / deadzone=21,11 / fast_pskip=1 / chroma_qp_offset=-2 / threads=12 / lookahead_threads=2 / sliced_threads=0 / nr=0 / decimate=1 / interlaced=0 / bluray_compat=0 / constrained_intra=0 / bframes=3 / b_pyramid=2 / b_adapt=2 / b_bias=0 / direct=3 / weightb=1 / open_gop=0 / weightp=2 / keyint=250 / keyint_min=25 / scenecut=40 / intra_refresh=0 / rc_lookahead=50 / rc=crf / mbtree=1 / crf=21.0 / qcomp=0.60 / qpmin=0 / qpmax=69 / qpstep=4 / ip_ratio=1.40 / aq=1:1.00
Matrix coefficients                      : BT.709-5, BT.1361, IEC 61966-2-4 709, SMPTE RP177

Audio
ID                                       : 2
Format                                   : AAC
Format/Info                              : Advanced Audio Codec
Format profile                           : LC
Codec ID                                 : 40
Duration                                 : 59mn 18s
Bit rate mode                            : Variable
Bit rate                                 : 124 Kbps
Maximum bit rate                         : 130 Kbps
Channel(s)                               : 2 channels
Channel positions                        : Front: L R
Sampling rate                            : 48.0 KHz
Compression mode                         : Lossy
Stream size                              : 52.6 MiB (18%)
Title                                    : English
Language                                 : English